【115】[前苏联][1989][斯大林格勒大血战][HDTV][央视配音][4 81G+5 26G

2017-07-25
字体:
浏览:4次
文章简介:[片 名]斯大林格勒大血战[英 文 名]Stalingrad[国 家]苏联/东德[出 品]苏联莫斯科电影制片厂[年 份]1989年[片 长]

【片 名】斯大林格勒大血战【英 文 名】Stalingrad【国 家】苏联/东德【出 品】苏联莫斯科电影制片厂【年 份】1989年【片 长】01:33:08【类 型】战争/剧情【编 剧】尤莉娅·奥泽罗娃【摄 影】伊戈尔·斯拉布涅维奇【作 曲】尤里·列维金【录 音】弗拉季斯拉夫·托罗霍夫【导 演】鲍里斯·列夫科维奇【剪 辑】斯维特兰娜·梅杰利查【服 装】季良拉·奥泽罗娃【主要演员】鲍沃斯·布特(美国)柳博米拉斯·拉乌羌维楚斯(苏联)费尔南多·阿伦德(美国)谢尔盖·尼科涅科(苏联)米哈伊尔·乌里扬诺夫(苏联) 冈特·永格汉斯(东德)【翻 译】迟文静【译制导演】孔祥艾【录音合成】马红岩王 勇【字 幕】李林松【技 术】李 英【制 片】张石羽【监 制】贾 琪【配音演员】齐克建郭政建凌 云张原铭凌振赫郑 炼范哲琛张 艾李 璐祥 杰朱阿丹李 韵电影频道节目中心译制【剧情介绍】本片反映勒第二次世界大战的历史转折点斯大林格勒战役,是一部极具历料及欣赏价值的巨作.

是导演尤.奥泽洛夫的卫国战争三部曲的最后一部.1942年夏季,德军大举进攻苏联,苏军撒退到斯大林格勒进行顽强地抵抗双动用200多万能兵力,2千多辆坦克、大炮、飞机。

最后苏军夺得了控制权,拖住了德军主力,11月19日,1万5千门大炮发出了震撼世界的吼声:"苏联红军开始了伟大的反攻"这也成了二次大战历史的转折点。 浓烈悲壮气氛破真实地记载宏伟辉煌的场面.

本片塑造了斯大林,崔可夫,古洛夫,朱可夫,赫鲁晓夫,叶廖缅科,罗克索夫斯基,希特勒,冯.博克,保卢斯等多个历史人物的历史形象的同时也塑造了西班牙***人以及德国红色合唱团等反法西斯英雄的英勇形象 ※※※※※※※ 影片参数 ※※※※※※※斯大林格勒大血战[下].

1080.mkvFormat : MatroskaFormat version : Version 4 / Version 2File size : 5.

27 GiBDuration : 1h 33mnOverall bit rate : 8 098 KbpsEncoded date : UTC 2014-08-18 23:21:03Writing application : mkvmerge v6.

5.0 ('Isn't she lovely') built on Oct 20 2013 12:50:05Writing library : libebml v1.

3.0 + libmatroska v1.4.1Video #1ID : 1Format : AVCFormat/Info : Advanced Video CodecFormat profile : High@L4.

0Format settings, CABAC : YesFormat settings, ReFrames : 4 framesCodec ID : V_MPEG4/ISO/AVCDuration : 1h 33mnBit rate : 7 488 KbpsNominal bit rate : 8 000 KbpsWidth : 1 920 pixelsHeight : 1 040 pixelsDisplay aspect ratio : 1.

85:1Frame rate mode : ConstantFrame rate : 25.000 fpsColor space : YUVChroma subsampling : 4:2:0Bit depth : 8 bitsScan type : ProgressiveBits/(Pixel*Frame) : 0.

150Stream size : 4.87 GiB (92%)Writing library : x264 core 142 r2409kMod d6b4e63Audio #2ID : 2Format : AC-3Format/Info : Audio Coding 3Mode extension : CM (complete main)Format settings, Endianness : BigCodec ID : A_AC3Duration : 1h 33mnBit rate mode : ConstantBit rate : 448 KbpsChannel count : 2 channelsChannel positions : Front: L RSampling rate : 48.

0 KHzBit depth : 16 bitsCompression mode : LossyDelay relative to video : 16msStream size : 298 MiB (6%)Language : ChineseDefault : YesForced : No※※※※※※※ 影片截图 ※※※※※※※